Goodbye Christopher Robin (2017) 720p Bluray Dual Audio [Hindi DD...

seeders: 25
leechers: 9
updated:
Added by TheFighter in Other


Description









Goodbye Christopher Robin (2017) 720p Bluray Dual Audio [Hindi DD5.1 - Eng DD2.0] - Msubs ~ Ranvijay

Thanks To Mr Rajput For Hindi Audio

Format : Matroska
Format version : Version 4 / Version 2
File size : 1.32 GiB
Duration : 1 h 47 min
Overall bit rate : 1 765 kb/s
Movie name : Goodbye Christopher Robin (2017) 720p Bluray Dual Audio [Hindi DD5.1 - Eng DD2.0] - Msubs ~ Ranvijay

Video
Duration : 1 h 47 min
Bit rate : 1 205 kb/s
Width : 1 280 pixels
Height : 688 pixels
Display aspect ratio : 1.85:1
Frame rate mode : Constant
Frame rate : 23.976 (24000/1001) FPS
Stream size : 921 MiB (68%)
Title : ~Ranvijay~
Default : Yes
Forced : No

Audio #1
ID : 2
Format : AC-3
Format/Info : Audio Coding 3
Codec ID : A_AC3
Duration : 1 h 47 min
Bit rate mode : Constant
Bit rate : 448 kb/s
Channel(s) : 6 channels
Channel positions : Front: L C R, Side: L R, LFE
Sampling rate : 48.0 kHz
Frame rate : 31.250 FPS (1536 SPF)
Bit depth : 16 bits
Compression mode : Lossy
Stream size : 343 MiB (25%)
Title : ~Ranvijay~
Language : Hindi
Service kind : Complete Main
Default : Yes
Forced : No

Audio #2
ID : 3
Format : AAC
Format/Info : Advanced Audio Codec
Format profile : HE-AAC / LC
Format settings : Explicit
Codec ID : A_AAC-2
Duration : 1 h 47 min
Bit rate : 100.0 kb/s
Channel(s) : 2 channels
Channel positions : Front: L R
Sampling rate : 48.0 kHz / 24.0 kHz
Frame rate : 23.438 FPS (1024 SPF)
Compression mode : Lossy
Delay relative to video : 31 ms
Stream size : 76.5 MiB (6%)
Title : ~Ranvijay~
Language : English
Default : No
Forced : No

Text #1
ID : 4
Format : UTF-8
Codec ID : S_TEXT/UTF8
Codec ID/Info : UTF-8 Plain Text
Duration : 1 h 40 min
Bit rate : 63 b/s
Count of elements : 1670
Stream size : 46.9 KiB (0%)
Title : ~Ranvijay~
Language : English
Default : No
Forced : No

Text #2
ID : 5
Format : PGS
Muxing mode : zlib
Codec ID : S_HDMV/PGS
Codec ID/Info : Picture based subtitle format used on BDs/HD-DVDs
Duration : 1 h 45 min
Bit rate : 31.5 kb/s
Count of elements : 2852
Stream size : 23.8 MiB (2%)
Title : ~Ranvijay~
Language : Hindi
Default : Yes
Forced : No










Sharing Widget


Download torrent
Size: 1.3 GB (1395864371 Bytes)
seeders:25
leechers:9
Goodbye Christopher Robin (2017) 720p Bluray Dual Audio [Hindi DD...



To share this torrent use the code below and insert it into comments, status messages, forum posts or your signature.

Torrent: Goodbye Christopher Robin (2017) 720p Bluray Dual Audio [Hindi DD...

Trackers

tracker name
http://bigfoot1942.sektori.org:6969/announce
http://tracker2.wasabii.com.tw:6969/announce
udp://tracker.opentrackr.org:80/announce
http://announce.torrentsmd.com:6969/announce
udp://tracker.trackerfix.com:80/announce
udp://explodie.org:6969/announce
udp://mgtracker.org:6969/announce
udp://asnet.pw:2710/announce
udp://tracker.mgtracker.org:2710/announce
udp://tracker4.piratux.com:6969/announce
udp://tracker.trackerfix.com:80/announce
udp://tracker.pomf.se:80/announce
udp://tracker.x4w.co:6969/announce
udp://castradio.net:6969/announce
udp://tracker.zer0day.to:1337/announce
udp://tracker.leechers-paradise.org:6969/announce
udp://coppersurfer.tk:6969/announce
µTorrent compatible trackers list

Locations

name
KickassTorrents
Torrent hash: 88922847C6D6F0EBF1B6192BDB2554AE2E328E14

All Comments

audio
0/10
video
0/10
please, leave only comments related to that torrent
Sign In

Report a bug