The.Gateway.2018.WEB-DL.XviD.MP3-FGT[rarbg]

seeders: 7
leechers: 1
updated:
Added by SeekNDstroy in Other
Torrent reliable.
Torrent verified.


strongly advises you to use NordVPN while downloading torrents.
NordVPN is the safest VPN on the market, and the fastest VPN as well.
No IP Log is saved using NordVPN, avoid other VPN providers and choose the safest one.
Click here and buy NordVPN it's on rebates today!
We were able to verify your IP: 2a01:4f8:201:9127::2 and country: .
If we can do that, others can too, protect your privacy with NordVPN.
is trying the best for you!


The.Gateway.2018.WEB-DL.XviD.MP3-FGT[rarbg] Size: 991.3 MB (1039453388 Bytes)

Description

 

A particle physicist grieving over the loss of her husband in a car crash travels to a parallel world to find him again| with dire consequences for her family.

IMDB Rating: 7.9/10 from 102 users Updated : 2018-02-14
Genres: Sci-Fi
Actors: Jacqueline McKenzie , Myles Pollard , Hayley McElhinney , Shannon Berry , Ben Mortley , Troy Coward , Adam T Perkins , Ryan Panizza , Jag Pannu , John McPherson , Shirley Toohey , Steve Burridge
Director: John V. Soto

Video
ID                                       : 0
Format                                   : MPEG-4 Visual
Format profile                           : [email protected] 
Format settings, BVOP                    : No
Format settings, QPel                    : No
Format settings, GMC                     : No warppoints
Format settings, Matrix                  : Default (H.263)
Codec ID                                 : XVID
Codec ID/Hint                            : XviD
Duration                                 : 1 h 30 min
Bit rate                                 : 1 329 kb/s
Width                                    : 720 pixels
Height                                   : 304 pixels
Display aspect ratio                     : 2.40:1
Frame rate                               : 24.000 FPS
Color space                              : YUV
Chroma subsampling                       : 4:2:0
Bit depth                                : 8 bits
Scan type                                : Progressive
Compression mode                         : Lossy
Bits/(Pixel*Frame)                       : 0.253
Stream size                              : 859 MiB (87%)
Writing library                          : Lavc58.1.100

Audio
ID                                       : 1
Format                                   : MPEG Audio
Format version                           : Version 1
Format profile                           : Layer 3
Format settings                          : Joint stereo / MS Stereo
Codec ID                                 : 55
Codec ID/Hint                            : MP3
Duration                                 : 1 h 30 min
Bit rate mode                            : Constant
Bit rate                                 : 192 kb/s
Channel(s)                               : 2 channels
Sampling rate                            : 48.0 kHz
Compression mode                         : Lossy
Stream size                              : 124 MiB (13%)
Alignment                                : Aligned on interleaves
Interleave, duration                     : 24  ms (0.58 video frame)
Interleave, preload duration             : 504  ms
Writing library                          : LAMEÿÿÿæVa¡  ÂÀ 

 
 




Sharing Widget


Download torrent
Size: 991.3 MB (1039453388 Bytes)
seeders:7
leechers:1
The.Gateway.2018.WEB-DL.XviD.MP3-FGT[rarbg]



To share this torrent use the code below and insert it into comments, status messages, forum posts or your signature.

Torrent: The.Gateway.2018.WEB-DL.XviD.MP3-FGT[rarbg]

Trackers

tracker name
http://tracker.trackerfix.com:80/announce
udp://9.rarbg.me:2710/announce
udp://9.rarbg.to:2710/announce
udp://tracker.zer0day.to:1337/announce
udp://tracker.leechers-paradise.org:6969/announce
udp://coppersurfer.tk:6969/announce
µTorrent compatible trackers list

Locations

name
KickassTorrents
Torrent hash: A15308C0DB8DED6CC0969D2436669F4E97DB9065

All Comments

audio
0/10
video
0/10
please, leave only comments related to that torrent
Sign In

Report a bug